harry potter and the sorcerers stone rus скачать

 

 

 

 

Скачали файл? Поставьте лайк!Гарри Поттер и философский камень Harry Potter and the Sorcerer s Stone 2001 Размер: 7.4Gb. Год выпуска: 2001 Жанр: Приключения Разработчик: Electronic Arts Издательство: Kudos Прошивка: m33 Язык интерфейса: RUS Тип перевода: Текст Описание: Замечательная волшебная сказка о приключениях юного волшебника Гарри Поттера 18-Июл-09 20:27. Harry Potter And the Sorcerers Stone (RUS). Год выпуска: 2001. Жанр: Adventure.RuslanGulf. 02-Мар-16 22:10 (спустя 2 года 11 месяцев). Дайте скачать господь Иисус! [PSP] LEGO Harry Potter: Years 5-7 / LEGO Гарри Поттер: годы 5-7 [Multi3/ Rus] (2011) - скачать игру через торрент.Чтобы получить ссылку на скачивание, пожалуйста, зарегистрируйтесь в одной из бесплатных игр наших партнеров Только вместе с вами, Гарри сумеет обрести новых друзей, победить злых волшебников и гигантских монстров. Помогите ему, в этом нелегком и увлекательном приключении его жизни. «Похожие публикации». (PS) Harry Potter and The Chamber of Secrets (RUS - Paradox/NTSC). Кстати, возможно Вы поинтересуетесь, почему в названии написано "Sorcerer s Stone" вместо "Phylosophers Stone". Ответ прост.Ссылка на скачивание. Скачать торрент (12.0Kb).

Торренты, похожие на Гарри Поттер и философский камень Harry Potter and the Sorcerers Stone скачать торрент. Форум. Название.Sorcerers Stone (Крис Коламбус / Chris Columbus) [2001 г фэнтези, приключения, семейный, детектив, BDRip-AVC] Dub Original Sub ( Rus, Eng rus eng.Вы можете скачать Harry Potter and the Sorcerers Stone бесплатно и наслаждаться музыкой на нашем вебсайте. Скачать бесплатно » Игры » Harry Potter and the Sorcerers Stone (2001/PC/ RUS).Название: Гарри Поттер и Дары смерти: Часть 1 Оригинальное название: Harry Potter and the Deathly Hallows: Part 1 Год выхода: 2010 Жанр: боевик, фэнтези, приключения, детектив Режиссер Rus-media.

org - открытый торрент трекер - скачивайте любые торренты и смотрите фильмыHarry Potter and the Sorcerers Stone (Крис Коламбус) [2001, фэнтези, приключения, HDRip] MVO - скачатьГарри и Тонто / Harry and Tonto [драма, мелодрама, комедия, 1974] HDRip, Mvo. Торрент скачать бесплатно фильмы, сериалы, игры, музыка, книги, программы, КПК.Harry Potter and The Order of the Phoenix / Гарри Поттер и Орден Феникса [L] [ RUS]. Harry Potter and the Philosophers Stone (рус. Гарри Поттер и Философский камень)Если вы не видите кнопку СКАЧАТЬ - отключите резалку рекламы у себя в браузере и обновитеHarry Potter / Все пять игр о Гарри Поттере (RUS) (2001 - 2005). Harry Potter and the Sorcerers Шоколадная лягушка — лакомство, которое прибавляет здоровья Гарри. Сундуки с бонусами — в них может находиться всё, что угодно: от конфет Берти Боттс и коллекционных карточек, до полтергейстаГарри Поттер и тайная комната / Harry Potter And The Chamber Of Secret. Сюжет Philosophers Stone (в США - Sorcerers Stone) являет собой невероятную компиляцию книги, фильма и фантазии разработчиков.Harry Potter and the Chamber of Secrets (rus, eng) (Golden Leon) (SLUS-01503). Сравнение с PC-версией PC-версию Harry Potter and the Sorcerers Stone мы детально разобрали в предыдущей статье, а теперь давайте посмотрим, чем так примечательна версия для приставки Sony PlayStation. Описание: Harry Potter And the Sorcerers Stone— первая игра, которая дает возможность всем поклонникам книг Джоан Роулинг и фильмов на их основе окунуться в волшебный мир приключений Гарри Поттера. Наш Telegram-канал filmnntt Статус: (Nickolas3434). Список файлов : Кто скачал : Раздают : Скачивают : Кто благодарил : Скрыть.Данила Горшков и булыжник Халявы / Harry Potter and the Sorcerers Stone (2007) BDRip | L1. Скачать торрент.1 Frame rate mode : Constant Frame rate : 23.976 fps Color space : YUV Chroma subsampling : 4:2:0 Bit depth : 8 bits Scan type : Progressive Bits/(PixelFrame) : 0.295 Stream size : 1.70 GiB (82) Title : Harry Potter and the Sorcerers Stone 2001 Writing library : x264 core 140 Платформа: PS1 Название игры: Harry Potter and the Sorcerers Stone Год: 2001 Жанр: Action / Adventure Регион: NTSC Язык интерфейса: RUS Мультиплеер: Нет. Описание: Замечательная волшебная сказка о приключениях юного волшебника Гарри Поттера по мотивам harry-potter-and-the-sorcerers-stone-2001-rs.torrent [19,43 Kb] ( cкачиваний: 4783).Harry Potter and the Order of the Phoenix / Гарри Поттер и Орден Феникса (2007) РС торрент. ГЛАВНАЯ - Консоли, ромы и эмуляторы - Sony Playstation 1 - Harry Potter and the Philosophers Stone [PS1].Одна из игр о волшебнике Гарри Поттере. 20 мар. 2017 18ч. 03 мин. Загрузить В закладки. Версия. 1. Истерия под названием Harry Potter , успешно отметившись на киноэкранах и в рождественских наборах LEGO, добралась, наконец, и до компьютеров. Надо признаться, что Гарри на Unreal-движке выглядит весьма и весьма впечатляюще. Торренты, похожие на Гарри Поттер и философский камень Harry Potter and the Sorcerers Stone скачать торрент. Форум. Название.Sorcerers Stone (Крис Коламбус / Chris Columbus) [2001 г фэнтези, приключения, семейный, детектив, BDRip-AVC] Dub Original Sub ( Rus, Eng Замечательная волшебная сказка о приключениях юного волшебника Гарри Поттера, вместе с которым вы отправляетесь в самую престижнуюHarry Potter and The Chamber of Secrets [SLUS-01503] [Russian] [Paradox]. Фэнтези, приключения, семейный. Режиссер: Крис Коламбус. В ролях: Дэниэл Рэдклифф, Руперт Гринт, Эмма Уотсон и др. Гарри Поттер живет в Англии вместе с дядей, тетей и двоюродным братом в Суррее, мальчику десять лет и он остался сиротой. Год выпуска: 2001 Разработчик: KnowWonder, Inc. Издатель: Electronic Arts, Inc. Описание: Action Регион: Rus Язык: Русский Формат: MDS Общий размер в Мб: 458.Теги: playstation, sony playstation, игры для sony playstation, psx, ps one, Harry Potter and the Sorcerers Stone, скачатьand The Sorcerers stone / Гарри Поттер и Философский Камень [RUS] [INSTALL] [Сборка].музыку из игры можно де то скачать? а играть и хочется и не хочется одновременнотекст. вообще. при запуске после заставок показывается фон с надписью harry potter, поклацала Rus-media.org - открытый торрент трекер - скачивайте любые торренты и смотрите фильмы ОНЛАЙН без регистрации и рекламы.Гарри Поттер и философский камень / Harry Potter and the Sorcerers Stone [Фэнтези, Приключения, Семейный, 2001] BDRip-HEVC 2160p, Dub. Скачать Garri.Potter.I.

Filosofskij.Kamen.2001.TC.RUS.BD.torrent Как тут качать? Добавить rutor.website в поисковую строку. Гарри Поттер и философский камень / Harry Potter and the Sorcerers Stone [Theatrical Cut] (2001) BDRip Релиз от HQ-ViDEO. Oddworld: New n Tasty (2015/RUS/ENG/Multi/RePack). Watch Dogs - Digital Deluxe Edition (2014/ RUS/ENG/RePacСкачать игру Harry Potter The Sorcerers Stone: Внимание! У вас нет прав для просмотра скрытого текста. Harry Potter and the Philosophers Stone / Гарри Поттер и Философский Камень [ RUS]. Скачать игры.Описание: Гарри Поттер и философский камень - первая игра, которая дает возможность всем поклонникам книг Джоан Роулинг и фильмов на их основе окунуться в Harry Potter and The Sorcerers stone / Гарри Поттер и Философский Камень [ RUS] [INSTALL] [Сборка]. 2.39 GB.Начните скачивать торрент Harry Potter and the sorcerers Stone прямо сейчас! Скачать торрент.Гарри Поттер и философский камень / Harry Potter and the Sorcerers Stone (2001) DVD9.Язык интерфейса: русский Язык озвучки: русский Таблэтка: Не требуется Системные требования: -Windows 2000/XP/7 -Pentium II 266МГц -32 Mb RAM -4 Mb (32) видеокарта Описание: Harry Potter and the Sorcerers Stone это Рекомендуем скачать игру Harry Potter and the Sorcerers Stone через торрент бесплатно на компьютер в один клик без регистрации. Выберите в таблице русскую версию игры и нажмите на зеленую кнопку. » 1001 игра на русском языке NES/Dendy пак эмуляторов д » Corpse Party: Book of Shadows [ RUS][FULL][ISO][2013].Другие новости на эту тему: Гарри Поттер и философский камень / Harry Potter and the Sorcerers Stone Скачать бесплатно [249.4 mb].Гарри Поттер и философский камень / Harry Potter and the Sorcerers Stone (Крис Коламбус) [2001, фэнтези, приключения, семейный, BDRip 720p] DUB2xMVO( rus,ukr)DVO3xAVO.Гарри Поттер и Философский Камень [RUS] [INSTALL] [Сборка] скачать торрент по magnet-ссылке. Harry Potter and The Sorcerers stone / Гарри Поттер и Философский Камень.-4 Mb (32) видеокарта. Harry Potter and the Sorcerers Stone это интересная аркадная игра Harry Potter and the Sorcerers Stone [Rus]. Power Stone 2 (USA) (KALISTO).На данной странице Вы можете скачать Harry Potter The Sorcerers Stone ( RUS-Лисы) из раздела Игры Sony PlayStation 1 (PS1). Harry Potter and the Sorcerers Stone Год выпуска: 2001 Жанр: Action Adventure Разработчик: Argonaut Games Издательство: Electronic Arts Локализатор: Лисы/brill-fix Код диска: SLUS-01415 Платформа: PS Регион: NTSC Количество CD: 1 Мультиплеер: нет Язык интерфейса: RUS Тип2:0 Bit depth : 8 bits Scan type : Progressive Bits/(PixelFrame) : 0.295 Stream size : 1.70 GiB (82) Title : Harry Potter and the Sorcerers Stone 2001Что делать, если файл не скачивается. Как смотреть фильмы онлайн. Как скачать с трекера. Что означает "Примагнититься". Для вашего удобства мы сделали разделы, торрент фильмы которые можно скачать через торрент, у нас самый большой Игровой форум для геймеров,где находятся все геймеры России и Украины,и не только они.Mage Knight Apocalypse (PC/Repack/Rus). Скачать торренты бесплатно и без регистрации! База magnet-ссылок Рутрекера.Гарри Поттер и философский камень. Год выпуска: 2001. Жанр: Аркада, квест. Harry Potter and The Sorcerers Stone / Гарри Поттер и философский камень [ENG RUS].Скачивайте торренты без ограничений и без всяких регистраций на трекерах. Начните скачивать торрент Harry Potter Stone прямо сейчас! (RUS/Лисы).Важно. Ниже вы можете высказаться об игре Harry Potter and the Sorcerers Stone для консоли Sony Playstation 1, либо задать вопрос или описать иную проблему воспроизведения. name : Harry Potter and the Sorcerers Stone (2001) Encoded date : UTC 2016-06-24 03:10:38 Writing application : mkvmerge v9.1.0 (Little EarthquakesСравнение скриншотов с раздачей от lankano. Ссылка. Для скачки контента: [Установить программу-клиент] и кликнуть по - Скачать. PC игры Harry Potter and the Sorcerers Stone.LEGO Гарри Поттер / LEGO Harry Potter: Years 1-4 (2010/RUS/ENG) Представленный проект выполнен исключительно в стиле конструктора LEGO, что позволяет поклонникам произведения взглянуть на знакомую историюComplete name : F:Harry.Potter.and.the.Sorcerers.Stone.2001.BDRip.AAC5.1.x264.-whip93.mkv Format : Matroska Format version : Version 4фэнтези, приключения, семейный, BDRip-AVC] [Ultimate Edition] Dub AVO (Сербин) Original Subs ( Rus, Eng) скачать торрент бесплатно и Название: Гарри Поттер и Философский Камень Оригинальное название: Harry Potter and the Sorcerers Stone Год выхода: 2001 Жанр: Аркады, 3D, 3rd Person Разработчик: KnowWonderFreeCommander XE 0.0.0.609 RuS Portable скачать. Игорь Тузов - Разлука (2012) скачать. Скачали файл? Поставьте лайк!Гарри Поттер и философский камень Harry Potter and the Sorcerer s Stone 2001 Размер: 7.4Gb.

Свежие записи:


© | 2018